<?xml version="1.0" standalone="no"?>
<!DOCTYPE svg PUBLIC "-//W3C//DTD SVG 1.1//EN" "http://www.w3.org/Graphics/SVG/1.1/DTD/svg11.dtd" >
<svg xmlns="http://www.w3.org/2000/svg">
<metadata>Generated by IcoMoon</metadata>
<defs>
<font id="icomoon" horiz-adv-x="1024">
<font-face units-per-em="1024" ascent="960" descent="-64" />
<missing-glyph horiz-adv-x="1024" />
<glyph unicode="&#x20;" horiz-adv-x="512" d="" />
<glyph unicode="&#xe900;" d="M512.006 951.291c-277.96 0-503.292-225.332-503.292-503.293s225.332-503.292 503.292-503.292c137.115 0 265.512 55.113 359.566 151.133l10.968 11.198-348.148 340.974 347.921 341.197-10.976 11.19c-94.036 95.875-222.333 150.893-359.331 150.893zM518.217 919.904c119.948-1.553 232.355-48.052 317.715-128.674l1.857-1.768-348.175-341.472 348.405-341.223-1.869-1.796c-86.855-82.137-201.765-128.919-324.143-128.919-260.648 0-471.945 211.297-471.945 471.945s211.297 471.946 471.945 471.946l6.211-0.040z" />
<glyph unicode="&#xe901;" d="M372.681 742.311c-47.128 0-85.334-38.205-85.334-85.334s38.205-85.333 85.334-85.333c47.128 0 85.333 38.204 85.333 85.333s-38.204 85.334-85.333 85.334zM372.681 710.964c29.816 0 53.986-24.171 53.986-53.987s-24.17-53.986-53.986-53.986c-29.816 0-53.987 24.17-53.987 53.986s24.171 53.987 53.987 53.987z" />
<glyph unicode="&#xe902;" d="M929.966 533.332c-47.128 0-85.334-38.205-85.334-85.334s38.205-85.333 85.334-85.333c47.128 0 85.333 38.205 85.333 85.333s-38.205 85.334-85.333 85.334zM929.966 501.985c29.815 0 53.986-24.171 53.986-53.987s-24.17-53.986-53.986-53.986c-29.816 0-53.987 24.17-53.987 53.986s24.171 53.987 53.987 53.987z" />
<glyph unicode="&#xe903;" d="M348.603 478.867c-109.298 0-197.901-88.603-197.901-197.901s88.603-197.9 197.901-197.9c109.297 0 197.9 88.603 197.9 197.9s-88.603 197.901-197.9 197.901zM348.603 446.186c91.248 0 165.219-73.971 165.219-165.22s-73.971-165.219-165.219-165.219c-91.249 0-165.22 73.971-165.22 165.219s73.971 165.22 165.22 165.22z" />
<glyph unicode="&#xe904;" d="M518.466 945.997c6.305 6.456 16.651 6.579 23.107 0.273 6.053-5.911 6.539-15.373 1.38-21.853l-1.107-1.254-412.785-422.666c-121.245-121.245-121.245-317.823 0-439.068 120.033-120.033 313.899-121.233 435.3-3.71l3.656 3.598 422.529 430.804c6.319 6.443 16.665 6.543 23.108 0.224 6.040-5.924 6.506-15.387 1.334-21.856l-1.11-1.252-422.64-430.917c-134.008-134.008-351.278-134.008-485.286 0-132.668 132.668-133.995 346.941-4.112 481.107l3.976 4.041 412.649 422.529z" />
<glyph unicode="&#xe905;" d="M918.048 764.575c6.381 6.381 16.727 6.382 23.109 0 5.983-5.982 6.357-15.45 1.122-21.868l-1.122-1.241-343.135-343.149c-6.381-6.381-16.727-6.382-23.109 0-5.983 5.982-6.357 15.45-1.122 21.868l1.122 1.241 343.135 343.149z" />
<glyph unicode="&#xe906;" d="M754.401 855.109c6.244 6.516 16.588 6.736 23.104 0.492 6.108-5.854 6.684-15.311 1.587-21.839l-1.095-1.265-208.794-217.872c-6.244-6.516-16.588-6.736-23.104-0.492-6.108 5.854-6.684 15.311-1.587 21.839l1.095 1.265 208.794 217.872z" />
<glyph unicode="&#xe907;" horiz-adv-x="813" d="M465.525 816.204c73.482 91.506 180.075 144.133 324.322 137.772l6.295-0.314 14.957-0.831v-14.98c0-183.218-118.109-298.765-280.356-279.643-8.685 1.024-14.896 8.894-13.873 17.58s8.894 14.896 17.58 13.873c136.975-16.143 236.731 75.443 244.492 228.714l0.184 4.286-3.165 0.073c-125.316 2.419-217.509-43.585-282.614-122.515l-3.129-3.845c-22.307-27.778-39.653-57.592-52.594-87.387-3.871-8.913-7.096-17.26-9.72-24.879l-2.387-7.244c-0.335-1.066-0.63-2.032-0.886-2.893l-0.611-2.085v-332.248c0-8.231-6.28-14.995-14.31-15.763l-1.525-0.072c-8.231 0-14.995 6.28-15.763 14.31l-0.072 1.525v336.245l1.044 4.051c0.689 2.492 1.732 5.969 3.164 10.323 3.124 9.496 7.102 20.030 12.017 31.346 14.006 32.246 32.756 64.473 56.949 94.6z" />
<glyph unicode="&#xe908;" horiz-adv-x="813" d="M15.811 794.419c130.261 46.287 242.737 23.176 334.353-43.433 20.177-14.669 37.68-30.387 52.471-46.138 8.975-9.557 15.125-17.11 18.403-21.658 5.114-7.095 3.508-16.991-3.586-22.105s-16.991-3.508-22.105 3.586l-1.346 1.779c-0.624 0.802-1.423 1.808-2.396 3.003-3.347 4.11-7.369 8.723-12.057 13.716-13.489 14.364-29.523 28.763-48.007 42.202-79.8 58.018-176.080 79.721-288.668 44.692l-5.777-1.836 0.138-4.428c6.075-164.021 108.445-218.013 248.921-164.797l4.402 1.698c8.141 3.195 17.331-0.814 20.526-8.954s-0.814-17.331-8.954-20.526c-164.92-64.734-294.242 4.819-296.812 202.257l-0.039 6.022v11.178l10.533 3.743z" />
<glyph unicode="&#xe909;" horiz-adv-x="813" d="M789.993 320.284h-763.601c-11.661 0-21.113-9.453-21.113-21.113v-130.2c0-11.66 9.453-21.113 21.113-21.113h763.601c11.661 0 21.113 9.453 21.113 21.113v130.2c0 11.66-9.452 21.113-21.113 21.113zM779.433 288.615v-109.082h-742.484v109.082h742.484z" />
<glyph unicode="&#xe90a;" horiz-adv-x="813" d="M689.704 179.526c8.231 0 14.995-6.28 15.763-14.31l0.072-1.525v-190.021c0-19.726-15.458-35.841-34.921-36.894l-2.027-0.055h-520.797c-19.726 0-35.841 15.458-36.894 34.921l-0.055 2.027v190.021c0 8.745 7.090 15.835 15.835 15.835 8.231 0 14.995-6.28 15.763-14.31l0.072-1.525v-190.021c0-2.592 1.867-4.746 4.329-5.193l0.949-0.085h520.797c2.592 0 4.746 1.867 5.193 4.329l0.085 0.949v190.021c0 8.745 7.090 15.835 15.835 15.835z" />
<glyph unicode="&#xe90b;" glyph-name="timer" horiz-adv-x="901" d="M576.406 262.762c-5.034 0-10.068 0-12.587 2.519l-143.475 83.063c-7.549 5.034-12.584 12.587-12.584 22.655v244.158c0 15.103 10.069 25.171 25.171 25.171s25.17-10.068 25.17-25.171v-231.571l130.892-75.514c12.583-7.553 15.102-22.655 10.068-35.238-5.034-5.034-12.587-10.072-22.655-10.072zM435.45 773.735c-15.102 0-25.17 10.068-25.17 25.171v135.923c0 15.103 10.068 25.171 25.17 25.171s25.174-10.068 25.174-25.171v-135.923c0-15.103-10.072-25.171-25.174-25.171zM548.708 909.658h-226.537c-15.102 0-25.171 10.068-25.171 25.171s10.068 25.171 25.171 25.171h226.537c15.102 0 25.174-10.068 25.174-25.171s-10.072-25.171-25.174-25.171zM435.446-46.838c-239.126 0-435.459 196.334-432.942 435.458s196.334 435.457 435.457 435.457c239.124 0 435.458-196.334 432.939-435.457 0-115.786-47.821-226.537-128.369-307.085-80.548-83.067-191.3-128.373-307.085-128.373zM435.446 773.736c-211.438 0-385.117-173.68-385.117-385.115 0-213.955 171.162-385.114 385.117-385.114 213.95 0 385.114 171.16 385.114 385.114 0 103.199-40.272 201.367-113.271 271.846-72.995 72.996-168.645 113.269-271.843 113.269zM875.987 662.983c-7.549 0-12.583 2.517-17.617 7.551l-123.339 123.338c-10.068 10.068-10.068 25.171 0 35.239s25.17 10.068 35.238 0l123.339-123.338c10.068-10.068 10.068-25.171 0-35.24-2.515-5.034-10.068-7.551-17.621-7.551z" />
<glyph unicode="&#xe90c;" glyph-name="ebook" d="M224 896.043c17.673 0 32-14.327 32-32 0-15.906-11.605-29.101-26.809-31.581l-5.191-0.419h-128c-8.487 0-16.627-3.371-22.627-9.372-4.801-4.801-7.919-10.97-8.974-17.592l-0.399-5.036v-767.998c0-8.489 3.371-16.629 9.374-22.629 4.8-4.8 10.968-7.917 17.589-8.972l5.037-0.399h832c8.489 0 16.626 3.37 22.633 9.378 4.797 4.795 7.914 10.962 8.968 17.585l0.399 5.038v767.998c0 8.488-3.371 16.627-9.371 22.627-4.803 4.802-10.971 7.92-17.592 8.975l-5.037 0.399h-448c-17.673 0-32 14.327-32 32 0 15.906 11.605 29.101 26.809 31.581l5.191 0.419h448c25.462 0 49.876-10.113 67.881-28.116 15.754-15.753 25.467-36.417 27.649-58.395l0.47-9.489v-767.998c0-25.466-10.115-49.889-28.117-67.883-15.754-15.754-36.416-25.466-58.394-27.648l-9.489-0.47h-832c-25.462 0-49.881 10.114-67.878 28.113-15.755 15.75-25.47 36.417-27.652 58.397l-0.47 9.49v767.998c0 25.461 10.114 49.879 28.117 67.882 15.753 15.753 36.417 25.466 58.394 27.648l9.489 0.47h128zM448 960.043h-192c-8.412 0-16.742-1.658-24.512-4.88s-14.829-7.943-20.774-13.896c-5.942-5.949-10.655-13.015-13.866-20.789-3.212-7.778-4.859-16.109-4.848-24.521v-415.957l0.39-5.117c3.584-23.122 31.121-35.25 50.81-20.483l108.772 81.663 108.834-81.625c21.096-15.815 51.195-0.762 51.195 25.604v416c0 16.974-6.743 33.253-18.745 45.255s-28.281 18.745-45.255 18.745zM256 896.001l192 0.043-0.057-351.958-76.749 57.519-4.45 2.799c-10.771 5.597-23.991 4.663-33.945-2.803l-76.857-57.572 0.057 351.972zM672 192.046c17.673 0 32-14.327 32-32 0-15.906-11.605-29.101-26.809-31.581l-5.191-0.419h-448c-17.673 0-32 14.327-32 32 0 15.906 11.605 29.101 26.809 31.581l5.191 0.419h448zM800 384.046c17.673 0 32-14.327 32-32 0-15.906-11.605-29.101-26.809-31.581l-5.191-0.419h-576c-17.673 0-32 14.327-32 32 0 15.906 11.605 29.101 26.809 31.581l5.191 0.419h576zM800 576.043c17.673 0 32-14.327 32-32 0-15.906-11.605-29.101-26.809-31.581l-5.191-0.419h-192c-17.673 0-32 14.327-32 32 0 15.906 11.605 29.101 26.809 31.581l5.191 0.419h192z" />
<glyph unicode="&#xe90d;" glyph-name="report" horiz-adv-x="1081" d="M115.778 910.986h832.002c25.457 0 49.878-10.115 67.887-28.122 15.748-15.754 25.461-36.417 27.643-58.391l0.47-9.487v-768.002c0-25.453-10.116-49.872-28.123-67.888-15.754-15.747-36.419-25.46-58.391-27.642l-9.486-0.47h-832.002c-25.457 0-49.874 10.115-67.884 28.119-15.752 15.753-25.465 36.419-27.647 58.394l-0.47 9.487v768.002c0 25.461 10.114 49.878 28.118 67.882 15.753 15.753 36.417 25.466 58.394 27.648l9.488 0.47zM115.778 846.986c-8.487 0-16.626-3.372-22.628-9.373-4.801-4.801-7.919-10.97-8.974-17.591l-0.399-5.036v-768.002c0-8.485 3.372-16.627 9.368-22.623 4.804-4.803 10.977-7.922 17.597-8.978l5.035-0.399h832.002c8.481 0 16.627 3.374 22.622 9.367 4.803 4.805 7.923 10.979 8.979 17.599l0.399 5.034v768.002c0 8.483-3.373 16.626-9.371 22.626-4.802 4.801-10.973 7.92-17.594 8.975l-5.035 0.399h-832.002zM691.78 263.873c17.673 0 32-14.327 32-32 0-15.906-11.605-29.101-26.809-31.581l-5.191-0.419h-448.002c-17.673 0-32 14.327-32 32 0 15.906 11.605 29.101 26.809 31.581l5.191 0.419h448.002zM819.78 398.985c17.673 0 32-14.327 32-32 0-15.906-11.605-29.101-26.809-31.581l-5.191-0.419h-576.002c-17.673 0-32 14.327-32 32 0 15.906 11.605 29.101 26.809 31.581l5.191 0.419h576.002zM819.78 534.097c17.673 0 32-14.327 32-32 0-15.906-11.605-29.101-26.809-31.581l-5.191-0.419h-362.669c-17.673 0-32 14.327-32 32 0 15.906 11.605 29.101 26.809 31.581l5.191 0.419h362.669zM819.78 665.611c17.673 0 32-14.327 32-32 0-15.906-11.605-29.101-26.809-31.581l-5.191-0.419h-362.669c-17.673 0-32 14.327-32 32 0 15.906 11.605 29.101 26.809 31.581l5.191 0.419h362.669zM325.556 534.097c17.673 0 32-14.327 32-32 0-15.906-11.605-29.101-26.809-31.581l-5.191-0.419h-78.222c-17.673 0-32 14.327-32 32 0 15.906 11.605 29.101 26.809 31.581l5.191 0.419h78.222zM325.556 665.611c17.673 0 32-14.327 32-32 0-15.906-11.605-29.101-26.809-31.581l-5.191-0.419h-78.222c-17.673 0-32 14.327-32 32 0 15.906 11.605 29.101 26.809 31.581l5.191 0.419h78.222z" />
<glyph unicode="&#xe90e;" glyph-name="success-story" d="M992 608c15.906 0 29.101-11.605 31.581-26.809l0.419-5.191v-544c0-25.463-10.113-49.878-28.117-67.883-15.754-15.754-36.416-25.466-58.394-27.648l-9.489-0.47h-832c-25.462 0-49.881 10.114-67.883 28.119-15.753 15.754-25.465 36.416-27.647 58.393l-0.47 9.489v544c0 17.673 14.327 32 32 32 15.906 0 29.101-11.605 31.581-26.809l0.419-5.191v-544c0-8.488 3.371-16.625 9.374-22.629 4.8-4.8 10.968-7.917 17.589-8.972l5.037-0.399h832c8.489 0 16.626 3.37 22.628 9.372 4.802 4.802 7.919 10.969 8.974 17.591l0.399 5.037v544c0 17.673 14.327 32 32 32zM928 960h-832c-25.461 0-49.879-10.114-67.882-28.118s-28.118-42.421-28.118-67.882v-160c0-17.673 14.327-32 32-32h960c17.673 0 32 14.327 32 32v160c0 25.462-10.114 49.881-28.119 67.884s-42.42 28.116-67.881 28.116zM96 896h832c8.488 0 16.625-3.371 22.629-9.374l3.279-3.842c3.935-5.427 6.092-11.994 6.092-18.784v-127.972h-896v127.972c0 8.487 3.371 16.626 9.372 22.627s14.141 9.373 22.628 9.373zM353.231 936.791c4.855 16.993 22.567 26.833 39.56 21.978 15.294-4.37 24.793-19.153 23.001-34.454l-1.023-5.106-64-224c-4.855-16.993-22.567-26.833-39.56-21.978-15.294 4.37-24.793 19.153-23.001 34.454l1.023 5.106 64 224zM673.231 936.791c4.855 16.993 22.567 26.833 39.56 21.978 15.294-4.37 24.793-19.153 23.001-34.454l-1.023-5.106-64-224c-4.855-16.993-22.567-26.833-39.56-21.978-15.294 4.37-24.793 19.153-23.001 34.454l1.023 5.106 64 224zM385.39 511.928c-11.661-0.534-22.992-4.038-32.919-10.179-9.929-6.144-18.122-14.72-23.804-24.917s-8.666-21.679-8.666-33.353v-246.956c0-11.673 2.984-23.158 8.669-33.354 5.673-10.187 13.864-18.761 23.789-24.907 9.947-6.149 21.275-9.655 32.932-10.188 11.66-0.534 23.264 1.921 33.71 7.129l247.030 123.54c11.363 5.666 20.95 14.416 27.643 25.247 6.688 10.816 10.234 23.288 10.234 36.011 0 12.73-3.547 25.207-10.246 36.030-6.673 10.809-16.262 19.565-27.665 25.25l-246.96 123.502c-7.859 3.919-16.351 6.279-25.026 6.989l-8.719 0.157zM388.315 447.995c0.77 0.035 1.536-0.127 2.226-0.471l246.962-123.503c0.772-0.385 1.389-0.948 1.818-1.644 0.454-0.733 0.685-1.545 0.685-2.379 0-0.83-0.232-1.647-0.673-2.359-0.436-0.705-1.056-1.272-1.796-1.64l-247.029-123.54c-0.656-0.327-1.423-0.489-2.193-0.454-0.764 0.035-1.517 0.268-2.183 0.679-0.643 0.398-1.183 0.964-1.557 1.634-0.379 0.68-0.576 1.437-0.576 2.203v246.956c0 0.769 0.197 1.526 0.572 2.199s0.916 1.24 1.571 1.645l1.043 0.474 1.129 0.197z" />
<glyph unicode="&#xe90f;" glyph-name="webinar" horiz-adv-x="967" d="M741.594 213.39c10.262 14.389 30.245 17.735 44.634 7.473 12.79-9.121 16.855-25.924 10.393-39.651l-2.92-4.982c-29.582-41.48 12.614-142.61 67.835-175.433l7.272-3.883c29.138-13.802 21.469-55.872-8.232-60.504l-5.467-0.415h-743.108c-32.241 0-43.32 41.304-18.462 58.204l4.763 2.716c56.242 26.641 102.014 127.153 78.563 173.578l-3.456 5.738c-10.261 14.389-6.915 34.372 7.474 44.633s34.372 6.915 44.633-7.474c39.337-55.16 20.462-143.737-24.777-207.733l-4.244-5.657h574.066l-4.19 5.657c-43.183 61.087-62.343 144.571-29.782 200.009l5.006 7.724zM483.556 735.997c-61.879 0-121.32-23.325-165.315-65.005-44.337-42.003-69.352-99.216-69.352-158.995s25.015-116.993 69.353-158.993c43.993-41.682 103.434-65.009 165.314-65.009s121.323 23.327 165.318 65.011c44.335 41.998 69.349 99.211 69.349 158.991s-25.014 116.992-69.35 158.995c-43.995 41.68-103.437 65.005-165.317 65.005zM483.556 671.997c45.622 0 89.282-17.132 121.301-47.466 31.677-30.009 49.366-70.468 49.366-112.534s-17.689-82.524-49.365-112.531c-32.021-30.338-75.679-47.472-121.302-47.472s-89.279 17.133-121.298 47.47c-31.679 30.010-49.369 70.468-49.369 112.533s17.69 82.523 49.367 112.534c32.020 30.334 75.677 47.466 121.299 47.466zM483.555 559.997c-9.374 0-18.576-2.645-26.495-7.656-8.134-5.148-14.571-12.579-18.428-21.401-3.941-9.014-4.981-19.011-2.958-28.642 1.997-9.514 6.877-18.162 13.932-24.846 6.848-6.489 15.449-10.844 24.724-12.593 9.183-1.73 18.685-0.843 27.378 2.568 8.868 3.481 16.55 9.453 22.041 17.24 5.643 8.001 8.694 17.53 8.694 27.33 0 13.101-5.442 25.549-14.941 34.546-9.151 8.671-21.339 13.454-33.948 13.454zM486.185 527.751c2.727-0.514 5.31-1.822 7.438-3.838 2.328-2.205 3.991-5.152 4.686-8.465 0.718-3.418 0.348-6.981-1.037-10.148-1.3-2.974-3.408-5.407-5.986-7.039-2.365-1.496-5.037-2.264-7.731-2.264-3.65 0-7.246 1.411-10.068 4.085-3.16 2.993-5.043 7.302-5.043 11.915 0 3.471 1.071 6.814 3.004 9.555 1.779 2.523 4.185 4.393 6.879 5.451 2.523 0.99 5.233 1.243 7.858 0.748zM659.612 905.131c12.279 12.71 32.538 13.060 45.248 0.781s13.060-32.538 0.781-45.248c-28.325-29.32-62.735-52.684-101.023-68.629-38.192-15.905-79.426-24.087-121.017-24.039-41.666-0.048-82.899 8.133-121.092 24.039-38.285 15.944-72.693 39.308-101.022 68.628-12.28 12.71-11.932 32.968 0.778 45.248s32.968 11.932 45.248-0.778c22.228-23.006 49.336-41.413 79.6-54.016 30.356-12.642 63.2-19.159 96.487-19.12 33.213-0.039 66.057 6.478 96.413 19.12 30.267 12.604 57.375 31.011 79.599 54.015zM483.556 959.997c-124.588 0-244.169-46.925-332.506-130.613-88.679-84.011-138.605-198.2-138.605-317.387s49.925-233.374 138.605-317.388c88.341-83.688 207.922-130.614 332.507-130.614 124.582 0 244.164 46.927 332.506 130.613 88.68 84.018 138.608 198.206 138.608 317.389s-49.928 233.373-138.606 317.387c-88.341 83.688-207.922 130.613-332.508 130.613zM483.556 895.997c108.329 0 212.128-40.732 288.492-113.074 76.019-72.020 118.622-169.456 118.622-270.926s-42.602-198.904-118.623-270.928c-76.366-72.341-180.166-113.074-288.491-113.074-108.327 0-212.127 40.734-288.491 113.076-76.020 72.021-118.62 169.454-118.62 270.927s42.601 198.907 118.62 270.926c76.361 72.342 180.16 113.074 288.491 113.074z" />
<glyph unicode="&#xe910;" glyph-name="play" horiz-adv-x="791" d="M0 856.528c0 57.146 43.877 103.472 98.001 103.472 18.96 0 37.512-5.807 53.41-16.717l595.258-408.521c45.382-31.144 58.256-95.233 28.76-143.147-7.471-12.134-17.268-22.477-28.76-30.366l-595.258-408.52c-45.38-31.144-106.081-17.548-135.578 30.366-10.333 16.784-15.833 36.371-15.833 56.39v817.043z" />
<glyph unicode="&#xe911;" glyph-name="quote" horiz-adv-x="1210" d="M0-64h418.909l162.909 1024h-325.818l-256-1024zM628.364-64h418.909l162.909 1024h-325.818l-256-1024z" />
<glyph unicode="&#xe912;" glyph-name="logo-first" horiz-adv-x="963" d="M488.018 568.422c20.726 0 37.683 16.957 37.683 37.212s-16.957 37.683-37.683 37.683c-20.255 0-37.212-17.428-37.212-37.683s16.957-37.212 37.212-37.212zM457.871 304.64h60.764v235.52h-60.764v-235.52zM705.2 546.755c-31.56 0-56.054-11.776-70.185-32.973v26.378h-60.764v-235.52h60.764v127.181c0 40.98 22.139 58.409 51.814 58.409 27.32 0 46.633-16.486 46.633-48.517v-137.073h60.764v144.609c0 62.648-39.096 97.505-89.027 97.505zM532.726-51.18c-27.621 0-55.427 2.044-83.245 6.187-140.255 20.871-263.582 92.455-347.244 201.554-83.673 109.111-117.669 242.688-95.74 376.119 21.929 133.433 97.172 250.761 211.861 330.353 236.747 164.325 569.881 114.746 742.607-110.484l-50.104-34.759c-152.576 198.952-446.818 242.73-655.954 97.587-101.306-70.309-167.762-173.948-187.139-291.805-19.377-117.864 10.658-235.852 84.562-332.231 73.905-96.377 182.842-159.601 306.723-178.035 123.906-18.424 247.914 10.14 349.219 80.45l36.549-47.667c-91.941-63.818-200.417-97.27-312.095-97.27zM717.959 140.577l232.763 0.045-108.558-204.622z" />
<glyph unicode="&#xe913;" glyph-name="logo-last" horiz-adv-x="2958" d="M230.457 461.312c0 35.328 34.020 53.646 75.89 53.646 48.412 0 85.049-24.86 104.676-66.731l143.929 78.507c-51.029 90.283-142.62 138.695-248.604 138.695-134.77 0-248.604-74.581-248.604-208.043 0-230.286 337.579-177.948 337.579-273.465 0-37.945-36.636-56.263-90.283-56.263-65.422 0-109.909 31.403-128.228 85.049l-146.546-82.432c47.104-100.75 143.929-155.705 274.773-155.705 140.004 0 262.997 68.039 262.997 209.351 0 240.754-337.579 180.565-337.579 277.39zM760.326 725.618c57.572 0 104.676 47.104 104.676 103.367s-47.104 104.676-104.676 104.676c-56.263 0-103.367-48.412-103.367-104.676s47.104-103.367 103.367-103.367zM676.585-7.111h168.789v654.222h-168.789v-654.222zM1495.768 908.8v-338.887c-47.104 60.188-116.452 95.516-211.968 95.516-175.332 0-319.26-150.471-319.26-345.429s143.929-345.429 319.26-345.429c95.516 0 164.864 35.328 211.968 95.516v-77.198h168.789v915.911h-168.789zM1315.203 135.509c-104.676 0-181.874 74.581-181.874 184.491s77.198 184.491 181.874 184.491c103.367 0 180.565-74.581 180.565-184.491s-77.198-184.491-180.565-184.491zM1961.54 250.652h493.284c3.925 22.244 6.542 44.487 6.542 69.348 0 192.341-137.387 345.429-331.036 345.429-205.426 0-345.429-150.471-345.429-345.429s138.695-345.429 358.514-345.429c125.611 0 223.744 51.029 285.241 140.004l-136.078 78.507c-28.786-37.945-81.124-65.422-146.546-65.422-88.974 0-160.939 36.636-184.491 122.994zM1958.923 381.497c19.627 83.74 81.124 132.153 171.406 132.153 70.656 0 141.312-37.945 162.247-132.153h-333.653zM2747.989 534.585v112.526h-168.789v-654.222h168.789v312.718c0 137.387 111.218 176.64 198.884 166.172v188.416c-82.432 0-164.864-36.636-198.884-125.611z" />
<glyph unicode="&#xe914;" glyph-name="announce" d="M512.005 926.642c264.347 0 478.646-214.296 478.646-478.642 0-108.188-36.040-210.981-101.279-294.474-11.871-15.192-33.809-17.884-49.001-6.014s-17.884 33.809-6.014 49.001c55.73 71.323 86.476 159.016 86.476 251.486 0 225.786-183.040 408.824-408.827 408.824-225.786 0-408.823-183.037-408.823-408.824 0-92.566 30.808-180.339 86.644-251.701 11.881-15.184 9.203-37.125-5.982-49.005s-37.125-9.203-49.005 5.982c-65.363 83.537-101.476 186.423-101.476 294.724 0 264.346 214.295 478.642 478.641 478.642zM512.023 755.976c170.088 0 307.973-137.886 307.973-307.976 0-54.801-14.36-107.584-41.231-154.028-9.655-16.688-31.010-22.389-47.698-12.734s-22.389 31.010-12.734 47.698c20.763 35.886 31.845 76.623 31.845 119.064 0 131.53-106.627 238.158-238.154 238.158-131.532 0-238.16-106.627-238.16-238.158 0-42.436 11.084-83.177 31.843-119.060 9.655-16.688 3.953-38.043-12.735-47.698s-38.043-3.953-47.698 12.735c-26.867 46.439-41.228 99.228-41.228 154.023 0 170.091 137.886 307.976 307.978 307.976zM512.023 482.909c17.673 0 32.279-13.133 34.59-30.172l0.319-4.737v-443.732c0-19.28-15.629-34.909-34.909-34.909-17.673 0-32.279 13.133-34.59 30.172l-0.319 4.737v443.732c0 19.28 15.629 34.909 34.909 34.909z" />
<glyph unicode="&#xe915;" glyph-name="arrow-down" horiz-adv-x="323" d="M323.368 124.632h-323.368l161.684-188.632zM188.632 960h-53.895v-862.316h53.895v862.316z" />
<glyph unicode="&#xe916;" glyph-name="check" horiz-adv-x="1303" d="M1142.393 930.71c35.236 37.439 94.151 39.224 131.59 3.988 34.559-32.526 38.738-85.228 11.462-122.59l-7.475-9-738.148-784.282c-36.765-39.066-96.76-42.726-137.851-10.342l-9.128 8.113-365.578 365.578c-36.354 36.354-36.354 95.296 0 131.65 33.558 33.558 86.362 36.139 122.881 7.744l8.77-7.744 304.49-304.51 678.986 721.395z" />
<glyph unicode="&#xe917;" glyph-name="add-ltp" horiz-adv-x="1001" d="M318.578 254.578h-318.578v-318.578h318.578v318.578zM261.689 197.689v-204.8h-204.8v204.8h204.8zM1001.244 960h-318.578v-318.578h318.578v318.578zM944.356 903.111v-204.8h-204.8v204.8h204.8zM708.253 706.572l40.518-39.933-478.201-485.212-40.518 39.933z" />
<glyph unicode="&#xe918;" glyph-name="channel-reachability" horiz-adv-x="1047" d="M869.262 959.622h-755.484c-53.412 0-96.711-43.299-96.711-96.711v-272.309c0-53.411 43.299-96.711 96.711-96.711h755.484c53.412 0 96.711 43.3 96.711 96.711v272.309c0 53.412-43.298 96.711-96.711 96.711zM113.778 902.733h755.484c21.994 0 39.822-17.829 39.822-39.822v-272.309c0-21.993-17.829-39.822-39.822-39.822h-755.484c-21.993 0-39.822 17.83-39.822 39.822v272.309c0 21.993 17.829 39.822 39.822 39.822zM943.573 402.111h-755.484c-53.412 0-96.711-43.299-96.711-96.711v-272.309c0-53.412 43.299-96.711 96.711-96.711h755.484c53.412 0 96.711 43.299 96.711 96.711v272.309c0 53.412-43.299 96.711-96.711 96.711zM188.089 345.222h755.484c21.993 0 39.822-17.829 39.822-39.822v-272.309c0-21.993-17.829-39.822-39.822-39.822h-755.484c-21.993 0-39.822 17.829-39.822 39.822v272.309c0 21.993 17.829 39.822 39.822 39.822zM788.855 805.261c12.568 0 22.756-10.188 22.756-22.756 0-11.67-8.785-21.288-20.102-22.602l-2.654-0.153h-594.678c-12.568 0-22.756 10.188-22.756 22.756 0 11.67 8.785 21.288 20.102 22.602l2.654 0.153h594.678zM491.518 693.76c12.568 0 22.756-10.188 22.756-22.756 0-11.67-8.785-21.288-20.102-22.602l-2.654-0.153h-297.34c-12.568 0-22.756 10.188-22.756 22.756 0 11.67 8.785 21.288 20.102 22.602l2.654 0.153h297.34zM863.212 247.749c12.568 0 22.756-10.188 22.756-22.756 0-11.67-8.785-21.288-20.102-22.602l-2.654-0.153h-594.678c-12.568 0-22.756 10.188-22.756 22.756 0 11.67 8.785 21.288 20.102 22.602l2.654 0.153h594.678zM751.709 136.249c12.568 0 22.756-10.188 22.756-22.756 0-11.67-8.785-21.288-20.102-22.602l-2.654-0.153h-483.176c-12.568 0-22.756 10.188-22.756 22.756 0 11.67 8.785 21.288 20.102 22.602l2.654 0.153h483.176z" />
<glyph unicode="&#xe919;" glyph-name="interest-clusters" d="M277.787 943.66c15.041 0 27.234-12.193 27.234-27.234 0-14.101-10.717-25.699-24.45-27.093l-2.785-0.141h-168.851c-20.004 0-36.411-15.406-38.001-35.001l-0.126-3.127v-168.851c0-15.041-12.193-27.234-27.234-27.234-14.101 0-25.699 10.717-27.093 24.45l-0.141 2.785v168.851c0 49.635 39.054 90.149 88.109 92.489l4.486 0.107h168.851zM915.064 943.66c49.634 0 90.149-39.054 92.489-88.109l0.107-4.486v-168.851c0-15.041-12.193-27.234-27.234-27.234-14.101 0-25.699 10.717-27.093 24.45l-0.141 2.785v168.851c0 20.004-15.407 36.411-35.001 38.001l-3.127 0.126h-168.851c-15.041 0-27.234 12.193-27.234 27.234 0 14.101 10.717 25.699 24.45 27.093l2.785 0.141h168.851zM980.426 241.021c14.101 0 25.699-10.717 27.093-24.45l0.141-2.785v-168.851c0-49.634-39.055-90.149-88.109-92.489l-4.486-0.107h-168.851c-15.041 0-27.234 12.193-27.234 27.234 0 14.101 10.717 25.699 24.45 27.093l2.785 0.141h168.851c20.003 0 36.411 15.407 38.001 35.001l0.126 3.127v168.851c0 15.041 12.193 27.234 27.234 27.234zM43.574 241.021c14.101 0 25.699-10.717 27.093-24.45l0.141-2.785v-168.851c0-20.004 15.406-36.411 35.001-38.001l3.127-0.126h168.851c15.041 0 27.234-12.193 27.234-27.234 0-14.101-10.717-25.699-24.45-27.093l-2.785-0.141h-168.851c-49.635 0-90.149 39.055-92.489 88.109l-0.107 4.486v168.851c0 15.041 12.193 27.234 27.234 27.234zM512.022 547.304c-54.84 0-99.297-44.458-99.297-99.3s44.457-99.3 99.297-99.3c54.842 0 99.3 44.458 99.3 99.3s-44.458 99.3-99.3 99.3zM512.022 492.836c24.76 0 44.832-20.072 44.832-44.832s-20.072-44.832-44.832-44.832c-24.758 0-44.829 20.072-44.829 44.832s20.071 44.832 44.829 44.832zM115.64 547.304c-54.842 0-99.299-44.458-99.299-99.3s44.458-99.3 99.299-99.3c54.842 0 99.299 44.458 99.299 99.3s-44.458 99.3-99.299 99.3zM115.64 492.836c24.76 0 44.831-20.072 44.831-44.832s-20.072-44.832-44.831-44.832c-24.76 0-44.831 20.072-44.831 44.832s20.072 44.832 44.831 44.832zM908.364 547.304c-54.842 0-99.3-44.458-99.3-99.3s44.458-99.3 99.3-99.3c54.84 0 99.297 44.458 99.297 99.3s-44.457 99.3-99.297 99.3zM908.364 492.836c24.758 0 44.829-20.072 44.829-44.832s-20.071-44.832-44.829-44.832c-24.76 0-44.832 20.072-44.832 44.832s20.072 44.832 44.832 44.832zM512.022 943.66c-54.84 0-99.297-44.458-99.297-99.299s44.457-99.299 99.297-99.299c54.842 0 99.3 44.458 99.3 99.299s-44.458 99.299-99.3 99.299zM512.022 889.191c24.76 0 44.832-20.072 44.832-44.831s-20.072-44.831-44.832-44.831c-24.758 0-44.829 20.072-44.829 44.831s20.071 44.831 44.829 44.831zM512.022 150.942c-54.84 0-99.297-44.458-99.297-99.3s44.457-99.3 99.297-99.3c54.842 0 99.3 44.458 99.3 99.3s-44.458 99.3-99.3 99.3zM512.022 96.474c24.76 0 44.832-20.072 44.832-44.832s-20.072-44.832-44.832-44.832c-24.758 0-44.829 20.072-44.829 44.832s20.071 44.832 44.829 44.832z" />
<glyph unicode="&#xe91a;" glyph-name="predicted-behavior" horiz-adv-x="982" d="M664.204 902.026l-2.596-2.128-2.606 2.128c-73.104 60.058-185.766 55.668-252.936-10.004-68.771-67.238-63.648-172.863 11.161-234.32l226.467-186.050c10.411-8.549 25.405-8.549 35.812-0.004l226.47 186.054c74.811 61.457 79.935 167.081 11.163 234.32-67.169 65.672-179.832 70.062-252.935 10.004zM884.090 851.126c42.762-45.406 38.295-112.332-11.277-153.055l-211.225-173.501-211.195 173.5c-50.875 41.795-54.241 111.19-7.802 156.594 48.041 46.97 130.666 50.189 183.247 6.992l35.764-29.382 35.767 29.382c52.582 43.198 135.207 39.978 183.248-6.992l3.474-3.539zM135.637 510.403c37.918 4.71 75.894-7.427 104.010-33.021l4.142-3.94 95.91-95.287c5.029-4.997 11.385-8.406 18.277-9.85l3.487-0.557 232.844-25.703c50.807-5.61 85.224-52.264 78.216-100.781l-0.256-1.534 140.025 86.949c46.218 28.698 106.335 17.916 139.801-24.3l3.058-4.050c34.052-47.366 23.617-112.968-22.591-147.575l-4.048-2.889-270.146-183.636c-11.066-7.526-24.078-11.591-37.392-11.748l-5.004 0.125-536.588 33.32c-34.528 2.145-61.705 29.827-63.603 63.969l-0.106 3.819v381.783c0 33.005 23.679 61.029 55.805 66.832l3.743 0.57 60.415 7.502zM206.967 436.38c-15.938 15.835-37.843 24.014-60.115 22.622l-4.776-0.446-60.415-7.502c-7.136-0.886-12.655-6.479-13.599-13.432l-0.143-2.123v-381.783c0-7.59 5.41-13.979 12.677-15.387l2.025-0.258 536.583-33.319c2.778-0.172 5.536 0.397 7.999 1.632l1.788 1.050 270.15 183.639c25.315 17.208 31.458 51.905 13.59 76.758-15.982 22.229-45.824 28.979-69.667 16.311l-3.212-1.848-218.548-135.707c-11.872-7.373-25.697-10.883-39.574-10.115l-4.625 0.415-280.377 34.818c-14.317 1.778-24.482 14.826-22.704 29.143 1.667 13.422 13.239 23.195 26.475 22.899l2.667-0.195 280.381-34.818c2.843-0.353 5.715 0.081 8.308 1.237l1.888 1.001 12.006 7.464 0.171 2.343 0.45 2.585 0.722 2.575 12.143 36.192c7.109 21.192-6.275 43.485-27.807 47.559l-2.854 0.427-232.845 25.703c-18.305 2.022-35.487 9.677-49.2 21.844l-3.652 3.43-95.91 95.287z" />
<glyph unicode="&#xe91b;" glyph-name="purchase-history" d="M512 954.311c279.622 0 506.302-226.683 506.302-506.311s-226.68-506.311-506.302-506.311c-15.709 0-28.444 12.735-28.444 28.444s12.735 28.444 28.444 28.444c248.203 0 449.413 201.213 449.413 449.422s-201.21 449.422-449.413 449.422c-15.709 0-28.444 12.735-28.444 28.444s12.735 28.444 28.444 28.444zM511.998 578.844c-72.262 0-130.842-58.581-130.842-130.844s58.58-130.844 130.842-130.844c72.262 0 130.842 58.581 130.842 130.844s-58.58 130.844-130.842 130.844zM511.998 521.956c40.843 0 73.953-33.111 73.953-73.956s-33.11-73.956-73.953-73.956c-40.843 0-73.953 33.111-73.953 73.956s33.11 73.956 73.953 73.956zM149.94 713.5c-26.659 26.66-26.659 69.884 0 96.544s69.882 26.66 96.541 0c26.66-26.66 26.66-69.884 0-96.544-26.659-26.66-69.882-26.66-96.541 0zM0 448.007c0-37.704 30.563-68.267 68.265-68.267s68.265 30.563 68.265 68.267c0 37.701-30.563 68.267-68.265 68.267s-68.265-30.565-68.265-68.267zM149.971 85.964c26.659-26.66 69.882-26.66 96.542 0 26.658 26.658 26.658 69.882 0 96.543-26.66 26.66-69.883 26.66-96.542 0s-26.659-69.885 0-96.543z" />
<glyph unicode="&#xe91c;" glyph-name="purchase-journeys" d="M858.956 854.261c81.87 0 148.237-66.368 148.237-148.237 0-80.127-63.574-145.406-143.033-148.148l-5.204-0.090h-485.543c-60.633 0-109.786-49.153-109.786-109.786 0-59.037 46.6-107.191 105.024-109.685l4.762-0.101h485.654c81.869 0 148.237-66.369 148.237-148.237 0-80.128-63.573-145.406-143.033-148.148l-5.204-0.090h-792.284c-15.368 0-27.826 12.458-27.826 27.826 0 14.407 10.95 26.257 24.981 27.682l2.845 0.144h792.284c51.134 0 92.585 41.451 92.585 92.585 0 49.583-38.978 90.064-87.964 92.472l-4.621 0.113h-485.654c-91.369 0-165.438 74.070-165.438 165.438 0 89.541 71.136 162.469 159.977 165.35l5.461 0.088h485.543c51.133 0 92.585 41.452 92.585 92.585 0 49.584-38.977 90.064-87.964 92.472l-4.621 0.113h-792.173c-15.368 0-27.826 12.458-27.826 27.826 0 14.407 10.95 26.257 24.981 27.682l2.845 0.144h792.173zM33.391 943.304c14.407 0 26.257-10.95 27.682-24.981l0.144-2.845v-200.348c0-15.368-12.458-27.826-27.826-27.826-14.407 0-26.257 10.95-27.682 24.981l-0.144 2.845v200.348c0 15.368 12.458 27.826 27.826 27.826zM33.391 208.696c14.407 0 26.257-10.95 27.682-24.981l0.144-2.845v-200.348c0-15.368-12.458-27.826-27.826-27.826-14.407 0-26.257 10.95-27.682 24.981l-0.144 2.845v200.348c0 15.368 12.458 27.826 27.826 27.826z" />
<glyph unicode="&#xe91d;" glyph-name="desktop" horiz-adv-x="983" d="M819.2 960h-655.36c-90.486 0-163.84-73.354-163.84-163.84v-450.56c0-90.486 73.354-163.84 163.84-163.84h655.36c90.486 0 163.84 73.354 163.84 163.84v450.56c0 90.486-73.354 163.84-163.84 163.84zM163.84 878.080h655.36c45.243 0 81.92-36.677 81.92-81.92v-450.56c0-45.243-36.677-81.92-81.92-81.92h-655.36c-45.243 0-81.92 36.677-81.92 81.92v450.56c0 45.243 36.677 81.92 81.92 81.92zM696.32 38.4c22.622 0 40.96-18.338 40.96-40.96 0-21.006-15.812-38.318-36.183-40.684l-4.777-0.276h-409.6c-22.622 0-40.96 18.338-40.96 40.96 0 21.006 15.812 38.318 36.183 40.684l4.777 0.276h409.6z" />
<glyph unicode="&#xe91e;" glyph-name="survey-templates" horiz-adv-x="1280" d="M1194.667 960h-1109.333c-47.128 0-85.333-38.205-85.333-85.333v-298.667c0-47.128 38.205-85.333 85.333-85.333h1109.333c47.128 0 85.333 38.205 85.333 85.333v298.667c0 47.128-38.205 85.333-85.333 85.333zM85.333 874.667h1109.333v-298.667h-1109.333v298.667zM1194.667 405.333h-1109.333c-47.128 0-85.333-38.205-85.333-85.333v-298.667c0-47.128 38.205-85.333 85.333-85.333h1109.333c47.128 0 85.333 38.205 85.333 85.333v298.667c0 47.128-38.205 85.333-85.333 85.333zM85.333 320h1109.333v-298.667h-1109.333v298.667zM298.667 213.333c23.564 0 42.667-19.103 42.667-42.667 0-21.881-16.471-39.915-37.691-42.38l-4.976-0.287h-85.333c-23.564 0-42.667 19.103-42.667 42.667 0 21.881 16.471 39.915 37.691 42.38l4.976 0.287h85.333zM298.667 768c23.564 0 42.667-19.103 42.667-42.667 0-21.881-16.471-39.915-37.691-42.38l-4.976-0.287h-85.333c-23.564 0-42.667 19.103-42.667 42.667 0 21.881 16.471 39.915 37.691 42.38l4.976 0.287h85.333zM213.333 576c21.881 0 39.915-16.471 42.38-37.691l0.287-4.976v-170.667c0-23.564-19.103-42.667-42.667-42.667-21.881 0-39.915 16.471-42.38 37.691l-0.287 4.976v170.667c0 23.564 19.103 42.667 42.667 42.667zM1066.667 576c21.881 0 39.915-16.471 42.38-37.691l0.287-4.976v-170.667c0-23.564-19.103-42.667-42.667-42.667-21.881 0-39.915 16.471-42.38 37.691l-0.287 4.976v170.667c0 23.564 19.103 42.667 42.667 42.667z" />
<glyph unicode="&#xe91f;" glyph-name="smart-banners" d="M877.714 960h-731.429c-80.791 0-146.286-65.494-146.286-146.286v-731.429c0-80.791 65.494-146.286 146.286-146.286h731.429c80.791 0 146.286 65.494 146.286 146.286v731.429c0 80.791-65.494 146.286-146.286 146.286zM146.286 886.857h731.429c40.396 0 73.143-32.747 73.143-73.143v-731.429c0-40.396-32.747-73.143-73.143-73.143h-731.429c-40.396 0-73.143 32.747-73.143 73.143v731.429c0 40.396 32.747 73.143 73.143 73.143zM768 777.143h-512c-40.396 0-73.143-32.747-73.143-73.143v-219.429c0-40.396 32.747-73.143 73.143-73.143h512c40.396 0 73.143 32.747 73.143 73.143v219.429c0 40.396-32.747 73.143-73.143 73.143zM256 704h512v-219.429h-512v219.429zM804.571 301.714c20.198 0 36.571-16.374 36.571-36.571 0-18.755-14.118-34.213-32.306-36.325l-4.265-0.246h-585.143c-20.198 0-36.571 16.374-36.571 36.571 0 18.755 14.118 34.213 32.306 36.325l4.265 0.246h585.143zM804.571 192c20.198 0 36.571-16.374 36.571-36.571 0-18.755-14.118-34.213-32.306-36.325l-4.265-0.246h-585.143c-20.198 0-36.571 16.374-36.571 36.571 0 18.755 14.118 34.213 32.306 36.325l4.265 0.246h585.143z" />
<glyph unicode="&#xe920;" glyph-name="web-experiments" horiz-adv-x="819" d="M410.904 652.8c45.245 0 82.263-35.21 85.152-79.723l0.182-5.611v-221.867c0-18.851-15.282-34.133-34.133-34.133-17.505 0-31.932 13.177-33.904 30.153l-0.23 3.981v221.867c0 9.426-7.64 17.067-17.067 17.067-8.378 0-15.346-6.038-16.792-13.999l-0.275-3.068v-322.311c0-28.154-31.2-44.365-53.988-29.55l-3.052 2.214-113.605 91.31c-5.533 4.447-13.67 3.312-17.772-2.477-3.613-5.1-3.062-12.529 1.573-17.575 46.010-50.086 91.628-106.053 129.912-163.478l22.575-34.202c11.718-17.95 22.080-34.163 31.167-48.724 13.7-21.953 36.706-36.253 60.881-38.184l5.596-0.224h188.467c28.856 0 52.751 17.771 58.921 43.531 17.257 72.051 28.638 151.074 30.415 233.089l0.244 22.439v25.146c0 9.421-7.635 17.053-17.067 17.053-8.378 0-15.346-6.038-16.792-13.999l-0.275-3.068v-68.192c0-18.851-15.282-34.133-34.133-34.133-17.505 0-31.932 13.177-33.904 30.153l-0.23 3.981v68.192c0 47.127 38.206 85.333 85.333 85.333 45.245 0 82.263-35.197 85.152-79.709l0.182-5.611v-25.146c0-95.846-12.541-187.946-32.536-271.429-13.191-55.075-61.709-92.898-118.462-95.726l-6.848-0.17h-188.467c-50.199 0-97.4 27.282-124.39 70.531l-17.33 27.347c-10.414 16.211-22.153 34.136-35.299 53.854-36.050 54.074-79.567 107.463-123.385 155.163-26.205 28.526-29.398 71.612-7.001 103.225 25.723 36.301 75.668 44.632 111.633 19.665l4.609-3.446 59.603-47.904 0.007 253.030c0 45.242 35.211 82.263 79.723 85.152l5.611 0.182zM513.335 533.333c45.242 0 82.263-35.211 85.152-79.723l0.182-5.611v-136.533c0-18.851-15.282-34.133-34.133-34.133-17.505 0-31.932 13.177-33.904 30.153l-0.23 3.981v136.533c0 9.425-7.642 17.067-17.067 17.067-8.379 0-15.347-6.037-16.792-13.999l-0.275-3.068v-102.4c0-18.851-15.282-34.133-34.133-34.133-17.505 0-31.932 13.177-33.904 30.153l-0.23 3.981v102.4c0 47.128 38.203 85.333 85.333 85.333zM615.735 499.2c45.242 0 82.263-35.211 85.152-79.723l0.182-5.611v-136.533c0-18.851-15.282-34.133-34.133-34.133-17.505 0-31.932 13.177-33.904 30.153l-0.23 3.981v136.533c0 9.425-7.642 17.067-17.067 17.067-8.379 0-15.347-6.037-16.792-13.999l-0.275-3.068v-102.4c0-18.851-15.282-34.133-34.133-34.133-17.505 0-31.932 13.177-33.904 30.153l-0.23 3.981v102.4c0 47.128 38.203 85.333 85.333 85.333zM153.6 960c-84.831 0-153.6-68.769-153.6-153.6s68.769-153.6 153.6-153.6c84.831 0 153.6 68.769 153.6 153.6s-68.769 153.6-153.6 153.6zM153.6 891.733c47.128 0 85.333-38.205 85.333-85.333s-38.205-85.333-85.333-85.333c-47.128 0-85.333 38.205-85.333 85.333s38.205 85.333 85.333 85.333z" />
<glyph unicode="&#xe921;" glyph-name="product-comparison" horiz-adv-x="2048" d="M1297.067 960h-546.133c-113.108 0-204.8-91.692-204.8-204.8v-240.359c0-196.686 105.762-378.181 276.881-475.152l133.676-75.743c41.751-23.661 92.869-23.661 134.623 0.002l133.669 75.74c171.122 96.972 276.884 278.467 276.884 475.152v240.36c0 113.108-91.691 204.8-204.8 204.8zM750.933 823.467h546.133c37.704 0 68.267-30.563 68.267-68.267v-240.36c0-147.514-79.322-283.637-207.662-356.364l-133.669-75.743-133.677 75.744c-128.337 72.726-207.659 208.849-207.659 356.364v240.359c0 37.703 30.564 68.267 68.267 68.267zM614.4 550.4c37.703 0 68.267-30.564 68.267-68.267 0-35.010-26.354-63.864-60.305-67.807l-7.961-0.459h-546.133c-37.703 0-68.267 30.564-68.267 68.267 0 35.010 26.354 63.864 60.305 67.807l7.961 0.459h546.133zM1979.733 550.4c37.703 0 68.267-30.564 68.267-68.267 0-35.010-26.354-63.864-60.305-67.807l-7.961-0.459h-546.133c-37.703 0-68.267 30.564-68.267 68.267 0 35.010 26.354 63.864 60.305 67.807l7.961 0.459h546.133z" />
<glyph unicode="&#xe922;" glyph-name="dynamic-category" horiz-adv-x="1280" d="M341.333 960h-256c-47.128 0-85.333-38.205-85.333-85.333v-597.333c0-47.129 38.205-85.333 85.333-85.333h256c47.128 0 85.333 38.205 85.333 85.333v597.333c0 47.128-38.205 85.333-85.333 85.333zM85.333 874.667h256v-597.333h-256v597.333zM1194.667 960h-256c-47.129 0-85.333-38.205-85.333-85.333v-597.333c0-47.129 38.204-85.333 85.333-85.333h256c47.129 0 85.333 38.204 85.333 85.333v597.333c0 47.128-38.205 85.333-85.333 85.333zM938.667 874.667h256v-597.333h-256v597.333zM1066.667 277.333c21.881 0 39.915-16.471 42.38-37.691l0.287-4.976v-213.333c0-44.987-34.81-81.842-78.965-85.099l-6.369-0.234h-768c-44.986 0-81.842 34.81-85.099 78.965l-0.234 6.369v213.333c0 23.564 19.103 42.667 42.667 42.667 21.881 0 39.915-16.471 42.38-37.691l0.287-4.976v-213.333h768v213.333c0 23.564 19.103 42.667 42.667 42.667z" />
<glyph unicode="&#xe923;" glyph-name="layout-optimization" horiz-adv-x="1170" d="M219.429 960h-73.143c-80.791 0-146.286-65.494-146.286-146.286v-694.857c0-80.79 65.494-146.286 146.286-146.286h73.143v73.143h-73.143c-40.396 0-73.143 32.746-73.143 73.143v438.857h146.286v73.143h-146.286v182.857c0 40.396 32.747 73.143 73.143 73.143h73.143v73.143zM694.857 630.857h402.286v182.857c0 40.396-32.746 73.143-73.143 73.143h-329.143v73.143h329.143c80.79 0 146.286-65.494 146.286-146.286v-694.857c0-80.79-65.496-146.286-146.286-146.286h-329.143v73.143h329.143c40.397 0 73.143 32.746 73.143 73.143v438.857h-402.286v73.143zM457.143 960c18.755 0 34.213-14.118 36.325-32.306l0.246-4.265v-329.143c0-20.198-16.374-36.571-36.571-36.571-18.755 0-34.213 14.118-36.325 32.306l-0.246 4.265v329.143c0 20.198 16.374 36.571 36.571 36.571zM457.143 374.857c18.755 0 34.213-14.118 36.325-32.306l0.246-4.265v-365.714c0-20.198-16.374-36.571-36.571-36.571-18.755 0-34.213 14.118-36.325 32.306l-0.246 4.265v365.714c0 20.198 16.374 36.571 36.571 36.571zM457.143 630.857c-90.89 0-164.571-73.681-164.571-164.571s73.681-164.571 164.571-164.571c90.89 0 164.571 73.681 164.571 164.571s-73.681 164.571-164.571 164.571zM457.143 557.714c50.495 0 91.429-40.934 91.429-91.429s-40.934-91.429-91.429-91.429c-50.495 0-91.429 40.934-91.429 91.429s40.934 91.429 91.429 91.429z" />
<glyph unicode="&#xe924;" glyph-name="themes" d="M736.516 951h-667.281c-33.267 0-60.235-26.968-60.235-60.235v-667.281c0-33.267 26.968-60.235 60.235-60.235h667.281c33.267 0 60.235 26.968 60.235 60.235v667.281c0 33.267-26.968 60.235-60.235 60.235zM69.235 890.765h667.281v-667.281h-667.281v667.281zM954.751 732.75h-667.281c-33.267 0-60.235-26.968-60.235-60.235v-667.281c0-33.267 26.968-60.235 60.235-60.235h667.281c33.267 0 60.235 26.968 60.235 60.235v667.281c0 33.267-26.968 60.235-60.235 60.235zM287.471 672.515h667.281v-667.281h-667.281v667.281zM527.065 723.929c11.762 11.762 30.831 11.762 42.593 0 10.857-10.857 11.692-27.941 2.505-39.755l-2.505-2.837-291.008-291.005c-11.762-11.762-30.831-11.762-42.593 0-10.857 10.857-11.692 27.941-2.505 39.755l2.505 2.837 291.008 291.005zM745.357 505.679c11.762 11.762 30.831 11.762 42.593 0 10.857-10.857 11.692-27.941 2.505-39.755l-2.505-2.837-291.006-291.006c-11.762-11.762-30.831-11.762-42.593 0-10.857 10.857-11.692 27.941-2.505 39.755l2.505 2.837 291.006 291.006zM745.318 723.929c11.762 11.762 30.831 11.762 42.593 0 10.857-10.857 11.692-27.941 2.505-39.755l-2.505-2.837-509.262-509.262c-11.762-11.762-30.831-11.762-42.593 0-10.857 10.857-11.692 27.941-2.505 39.755l2.505 2.837 509.262 509.262z" />
<glyph unicode="&#xe925;" glyph-name="overlays" d="M877.714 813.714c78.344 0 142.302-61.585 146.107-138.985l0.179-7.301v-585.143c0-78.345-61.584-142.302-138.984-146.107l-7.301-0.179h-585.143c-80.792 0-146.286 65.493-146.286 146.286 0 20.198 16.374 36.571 36.571 36.571s36.571-16.374 36.571-36.571c0-38.56 29.837-70.15 67.684-72.942l5.459-0.201h585.143c38.561 0 70.15 29.836 72.942 67.684l0.201 5.459v585.143c0 40.396-32.746 73.143-73.143 73.143-20.198 0-36.571 16.374-36.571 36.571s16.374 36.571 36.571 36.571zM768 960h-621.714c-80.791 0-146.286-65.495-146.286-146.286v-621.714c0-80.793 65.494-146.286 146.286-146.286h621.714c80.793 0 146.286 65.493 146.286 146.286v621.714c0 80.792-65.493 146.286-146.286 146.286zM146.286 886.857h621.714c40.397 0 73.143-32.747 73.143-73.143v-621.714c0-40.397-32.745-73.143-73.143-73.143h-621.714c-40.396 0-73.143 32.746-73.143 73.143v621.714c0 40.396 32.747 73.143 73.143 73.143z" />
<glyph unicode="&#xe926;" glyph-name="overlays-2" d="M877.714 813.714c78.344 0 142.302-61.585 146.107-138.985l0.179-7.301v-585.143c0-78.345-61.584-142.302-138.984-146.107l-7.301-0.179h-585.143c-80.792 0-146.286 65.493-146.286 146.286 0 20.198 16.374 36.571 36.571 36.571s36.571-16.374 36.571-36.571c0-38.56 29.837-70.15 67.684-72.942l5.459-0.201h585.143c38.561 0 70.15 29.836 72.942 67.684l0.201 5.459v585.143c0 40.396-32.746 73.143-73.143 73.143-20.198 0-36.571 16.374-36.571 36.571s16.374 36.571 36.571 36.571zM768 960h-621.714c-80.791 0-146.286-65.495-146.286-146.286v-621.714c0-80.793 65.494-146.286 146.286-146.286h621.714c80.793 0 146.286 65.493 146.286 146.286v621.714c0 80.792-65.493 146.286-146.286 146.286zM146.286 886.857h621.714c40.397 0 73.143-32.747 73.143-73.143v-621.714c0-40.397-32.745-73.143-73.143-73.143h-621.714c-40.396 0-73.143 32.746-73.143 73.143v621.714c0 40.396 32.747 73.143 73.143 73.143z" />
<glyph unicode="&#xe927;" glyph-name="app" horiz-adv-x="788" d="M622.323 928.493h-456.862c-87.006 0-157.538-70.532-157.538-157.538v-645.908c0-87.006 70.532-157.538 157.538-157.538h456.862c87.006 0 157.538 70.532 157.538 157.538v645.908c0 87.006-70.532 157.538-157.538 157.538zM165.461 849.723h456.862c43.503 0 78.769-35.266 78.769-78.769v-645.908c0-43.503-35.266-78.769-78.769-78.769h-456.862c-43.503 0-78.769 35.266-78.769 78.769v645.908c0 43.503 35.266 78.769 78.769 78.769zM393.878 101.415c26.1 0 47.262 21.157 47.262 47.262 0 26.1-21.161 47.262-47.262 47.262-26.103 0-47.262-21.161-47.262-47.262 0-26.104 21.16-47.262 47.262-47.262z" />
<glyph unicode="&#xe928;" glyph-name="arrow-left" horiz-adv-x="3243" d="M512 533.292v-170.667l2730.667 0.001v170.667l-2730.667-0.001zM597.333-63.957v1023.999l-597.333-512z" />
<glyph unicode="&#xe929;" glyph-name="arrow-right" horiz-adv-x="3243" d="M2730.667 362.708v170.667h-2730.667v-170.667h2730.667zM2645.333 959.958v-1024.001l597.333 512.001z" />
<glyph unicode="&#xe92a;" glyph-name="chev-left" horiz-adv-x="896" d="M896-64v1024l-896-512z" />
<glyph unicode="&#xe92b;" glyph-name="chev-right" horiz-adv-x="896" d="M0 960v-1024l896 512z" />
<glyph unicode="&#xe92c;" glyph-name="dropdown" horiz-adv-x="1317" d="M1099.93 960c68.286 0 123.642-55.356 123.642-123.642 0-23.92-6.938-47.327-19.975-67.383l-488.151-751.002c-37.214-57.253-113.796-73.497-171.049-36.283-14.498 9.425-26.86 21.785-36.283 36.283l-488.151 751.002c-37.215 57.253-20.97 133.835 36.283 171.049 20.056 13.036 43.463 19.975 67.383 19.975h976.3z" />
<glyph unicode="&#xe92d;" glyph-name="fb" horiz-adv-x="563" d="M346.68-19.2v446.664h157.472l23.577 174.072h-181.049v111.139c0 50.397 14.701 84.745 90.613 84.745l96.815 0.042v155.686c-16.753 2.114-74.218 6.852-141.076 6.852-139.588 0-235.152-81.118-235.152-230.094v-128.375h-157.879v-174.072h157.874v-446.659h188.806z" />
<glyph unicode="&#xe92e;" glyph-name="ig" horiz-adv-x="1078" d="M365.839 432.676c0 91.377 74.056 165.472 165.433 165.472 91.375 0 165.469-74.096 165.469-165.472s-74.094-165.471-165.469-165.471c-91.377 0-165.433 74.094-165.433 165.471zM276.388 432.676c0-140.771 114.111-254.883 254.883-254.883 140.775 0 254.881 114.111 254.881 254.883s-114.106 254.883-254.881 254.883c-140.773 0-254.883-114.111-254.883-254.883zM736.682 697.666c-0.005-11.781 3.482-23.299 10.024-33.097 6.537-9.798 15.84-17.436 26.721-21.949s22.857-5.697 34.417-3.403c11.555 2.294 22.167 7.962 30.504 16.289 8.332 8.327 14.007 18.939 16.314 30.492 2.301 11.553 1.126 23.53-3.379 34.417-4.5 10.886-12.132 20.192-21.924 26.74s-21.31 10.047-33.091 10.052h-0.022c-15.791-0.007-30.936-6.282-42.103-17.446-11.172-11.164-17.451-26.304-17.462-42.096zM330.735 28.64c-48.394 2.204-74.699 10.262-92.179 17.074-23.175 9.022-39.71 19.769-57.095 37.128s-28.147 33.884-37.129 57.058c-6.814 17.473-14.875 43.784-17.075 92.176-2.406 52.321-2.887 68.042-2.887 200.596 0 132.556 0.52 148.23 2.887 200.596 2.204 48.395 10.325 74.655 17.075 92.179 9.022 23.175 19.768 39.71 37.129 57.096s33.88 28.147 57.095 37.129c17.473 6.814 43.785 14.875 92.179 17.075 52.322 2.406 68.039 2.887 200.536 2.887s148.228-0.521 200.598-2.887c48.392-2.204 74.655-10.325 92.176-17.075 23.175-8.982 39.71-19.768 57.096-37.129s28.106-33.921 37.128-57.096c6.812-17.472 14.875-43.784 17.074-92.179 2.409-52.366 2.889-68.039 2.889-200.596 0-132.554-0.48-148.232-2.889-200.596-2.204-48.392-10.305-74.698-17.074-92.176-9.022-23.175-19.769-39.71-37.128-57.058-17.359-17.343-33.921-28.106-57.096-37.128-17.473-6.812-43.784-14.875-92.176-17.074-52.326-2.409-68.042-2.889-200.598-2.889s-148.23 0.48-200.536 2.889zM326.625 926.047c-52.842-2.406-88.951-10.785-120.484-23.056-32.658-12.671-60.303-29.671-87.93-57.254s-44.583-55.272-57.254-87.93c-12.271-31.554-20.649-67.642-23.056-120.484-2.446-52.926-3.006-69.847-3.006-204.646s0.56-151.723 3.006-204.647c2.406-52.844 10.785-88.932 23.056-120.482 12.671-32.639 29.631-60.362 57.254-87.929 27.622-27.573 55.272-44.549 87.93-57.258 31.594-12.266 67.642-20.647 120.484-23.056 52.954-2.404 69.847-3.002 204.646-3.002s151.721 0.561 204.645 3.002c52.849 2.409 88.932 10.79 120.487 23.056 32.633 12.708 60.303 29.674 87.929 57.258s44.544 55.291 57.252 87.929c12.272 31.55 20.69 67.643 23.056 120.482 2.404 52.968 2.964 69.848 2.964 204.647s-0.561 151.721-2.964 204.646c-2.409 52.846-10.784 88.951-23.056 120.484-12.708 32.638-29.669 60.304-57.252 87.93s-55.296 44.583-87.892 57.254c-31.593 12.271-67.681 20.689-120.487 23.056-52.925 2.406-69.842 3.006-204.644 3.006-134.8 0-151.732-0.56-204.686-3.006z" />
<glyph unicode="&#xe92f;" glyph-name="in" horiz-adv-x="1088" d="M1049.235-32.646c-61.894 1.478-122.31 1.478-184.205 0-13.261 0-16.205 2.95-16.205 16.211 0 109.050 0 219.571 0 328.614 0 25.055-1.478 50.106-8.845 73.684-22.106 76.628-110.522 104.627-173.888 53.050-33.891-26.525-47.154-63.366-47.154-107.574 0-103.153 0-206.308 0-309.457 0-13.267-1.473-26.528 0-41.261 1.474-11.789-4.42-14.739-14.736-13.267-63.366 0-125.258 0-188.623 0-11.789 0-14.737 2.95-14.737 14.739 1.474 92.838 1.474 185.677 1.474 279.987 0 114.941 0 229.884-1.474 343.352 0 13.263 2.947 16.21 14.737 16.21 63.365 0 125.257 0 188.623 0 11.789 0 14.736-2.947 14.736-14.736 0-23.578 0-47.156 0-75.155 4.421 4.421 5.894 5.894 7.368 7.368 57.469 83.996 138.518 107.574 234.307 92.838 110.522-17.683 181.254-94.312 198.938-212.201 4.422-27.999 5.894-55.997 5.894-83.996 0-117.891 0-234.307 0-352.195 0-11.789-2.95-16.211-16.211-16.211zM282.966 294.547c0-103.155 0-206.31 0-309.459 0-13.267-2.948-17.69-16.21-17.69-61.892 1.478-123.784 0-185.676 0-11.789 0-14.736 2.95-14.736 14.739 0 207.782 0 417.034 0 624.813 0 10.316 2.947 14.737 14.736 14.737 63.366 0 126.732 0 190.097 0 13.263 0 14.737-4.421 14.737-16.21-2.947-103.153-2.947-206.307-2.947-310.931zM293.279 792.626c-14.737-58.945-75.155-92.838-144.415-81.049-73.681 11.789-114.942 83.996-88.417 154.73 17.684 44.209 60.418 70.734 114.942 69.26 82.522 1.474 137.046-64.839 117.889-142.941z" />
<glyph unicode="&#xe930;" glyph-name="lang" d="M132.612 678.263c-40.83-67.128-64.345-145.949-64.345-230.263 0-84.316 23.517-163.139 64.349-230.272 38.055 15.227 79.994 27.515 125.824 36.884-12.647 59.817-19.506 125.164-19.506 193.388s6.859 133.562 19.506 193.381c-45.832 9.371-87.773 21.655-125.828 36.881zM174.006 735.519c30.871-11.255 64.694-20.572 101.464-27.934 18.298 59.677 42.878 111.721 72.388 152.8-67.771-26.999-127.32-70.22-173.851-124.866zM891.387 678.263c-38.052-15.226-79.995-27.511-125.829-36.881 12.652-59.819 19.507-125.158 19.507-193.381s-6.856-133.571-19.507-193.388c45.834-9.37 87.772-21.658 125.829-36.884 40.832 67.133 64.348 145.956 64.348 230.272 0 84.314-23.516 163.134-64.348 230.263zM849.997 735.519c-46.536 54.646-106.081 97.867-173.855 124.866 29.512-41.078 54.093-93.123 72.387-152.8 36.772 7.362 70.595 16.679 101.468 27.934zM89.221 736.881c1.377 2.636 3.056 5.023 4.975 7.136 92.769 130.699 245.327 215.983 417.804 215.983s325.033-85.284 417.802-215.983c1.92-2.114 3.599-4.5 4.977-7.136 56.294-82.226 89.221-181.708 89.221-288.881 0-107.162-32.922-206.633-89.206-288.855-1.382-2.662-3.077-5.069-5.018-7.199-92.769-130.678-245.315-215.946-417.777-215.946-172.461 0-325.005 85.268-417.777 215.946-1.939 2.13-3.634 4.536-5.020 7.199-56.281 82.222-89.203 181.693-89.203 288.855 0 107.173 32.929 206.655 89.221 288.881zM325.945 630.055c-11.953-55.378-18.745-116.943-18.745-182.055 0-65.116 6.793-126.684 18.746-182.062 56.876 7.613 118.891 11.397 186.054 11.397s129.178-3.784 186.056-11.397c11.95 55.378 18.744 116.946 18.744 182.062 0 65.112-6.794 126.678-18.744 182.055-56.878-7.612-118.892-11.397-186.056-11.397s-129.179 3.785-186.055 11.397zM343.69 696.593c51.318-6.433 107.424-9.668 168.31-9.668s116.992 3.235 168.31 9.668c-38.103 118.236-101.53 195.14-168.31 195.14-66.779 0-130.207-76.904-168.31-195.14zM174.011 160.476c46.531-54.646 106.078-97.864 173.846-124.861-29.508 41.078-54.088 93.117-72.385 152.791-36.769-7.357-70.59-16.676-101.461-27.93zM849.987 160.476c-30.868 11.254-64.691 20.572-101.458 27.93-18.299-59.674-42.88-111.713-72.387-152.791 67.768 26.998 127.319 70.216 173.844 124.861zM343.693 199.398c38.104-118.231 101.53-195.133 168.307-195.133 66.78 0 130.202 76.902 168.31 195.133-51.318 6.431-107.423 9.667-168.31 9.667-60.885 0-116.99-3.236-168.307-9.667z" />
<glyph unicode="&#xe931;" glyph-name="logo" horiz-adv-x="1884" d="M488.018 568.422c20.726 0 37.683 16.957 37.683 37.212s-16.957 37.683-37.683 37.683c-20.255 0-37.212-17.428-37.212-37.683s16.957-37.212 37.212-37.212zM457.871 304.64h60.764v235.52h-60.764v-235.52zM705.2 546.755c-31.56 0-56.054-11.776-70.185-32.973v26.378h-60.764v-235.52h60.764v127.181c0 40.98 22.139 58.409 51.814 58.409 27.32 0 46.633-16.486 46.633-48.517v-137.073h60.764v144.609c0 62.648-39.096 97.505-89.027 97.505zM902.164 473.272c0 12.718 12.247 19.313 27.32 19.313 17.428 0 30.618-8.95 37.683-24.023l51.814 28.262c-18.371 32.502-51.343 49.93-89.498 49.93-48.517 0-89.498-26.849-89.498-74.895 0-82.903 121.528-64.061 121.528-98.447 0-13.66-13.189-20.255-32.502-20.255-23.552 0-39.567 11.305-46.162 30.618l-52.756-29.676c16.957-36.27 51.814-56.054 98.918-56.054 50.401 0 94.679 24.494 94.679 75.366 0 86.671-121.528 65.004-121.528 99.86zM1092.917 568.422c20.726 0 37.683 16.957 37.683 37.212s-16.957 37.683-37.683 37.683c-20.255 0-37.212-17.428-37.212-37.683s16.957-37.212 37.212-37.212zM1062.771 304.64h60.764v235.52h-60.764v-235.52zM1357.677 634.368v-121.999c-16.957 21.668-41.923 34.386-76.308 34.386-63.119 0-114.934-54.17-114.934-124.355s51.814-124.355 114.934-124.355c34.386 0 59.351 12.718 76.308 34.386v-27.791h60.764v329.728h-60.764zM1292.673 355.983c-37.683 0-65.475 26.849-65.475 66.417s27.791 66.417 65.475 66.417c37.212 0 65.004-26.849 65.004-66.417s-27.791-66.417-65.004-66.417zM1525.354 397.435h177.582c1.413 8.008 2.355 16.015 2.355 24.965 0 69.243-49.459 124.355-119.173 124.355-73.953 0-124.355-54.17-124.355-124.355s49.93-124.355 129.065-124.355c45.22 0 80.548 18.371 102.687 50.401l-48.988 28.262c-10.363-13.66-29.204-23.552-52.756-23.552-32.031 0-57.938 13.189-66.417 44.278zM1524.412 444.539c7.066 30.147 29.204 47.575 61.706 47.575 25.436 0 50.872-13.66 58.409-47.575h-120.115zM1808.476 499.651v40.509h-60.764v-235.52h60.764v112.579c0 49.459 40.038 63.59 71.598 59.822v67.83c-29.676 0-59.351-13.189-71.598-45.22zM532.726-51.18c-27.621 0-55.427 2.044-83.245 6.187-140.255 20.871-263.582 92.455-347.244 201.554-83.673 109.111-117.669 242.688-95.74 376.119 21.929 133.433 97.172 250.761 211.861 330.353 236.747 164.325 569.881 114.746 742.607-110.484l-50.104-34.759c-152.576 198.952-446.818 242.73-655.954 97.587-101.306-70.309-167.762-173.948-187.139-291.805-19.377-117.864 10.658-235.852 84.562-332.231 73.905-96.377 182.842-159.601 306.723-178.035 123.906-18.424 247.914 10.14 349.219 80.45l36.549-47.667c-91.941-63.818-200.417-97.27-312.095-97.27zM717.959 140.577l232.763 0.045-108.558-204.622z" />
<glyph unicode="&#xe932;" glyph-name="mail" horiz-adv-x="1331" d="M1085.28 949.759h-839.68c-113.108 0-204.8-91.692-204.8-204.8v-593.92c0-113.108 91.692-204.8 204.8-204.8h839.68c113.108 0 204.8 91.692 204.8 204.8v593.92c0 113.108-91.692 204.8-204.8 204.8zM245.6 847.359h839.68c56.554 0 102.4-45.846 102.4-102.4v-593.92c0-56.554-45.846-102.4-102.4-102.4h-839.68c-56.554 0-102.4 45.846-102.4 102.4v593.92c0 56.554 45.846 102.4 102.4 102.4zM1209.122 817.344l59.519-83.326-513.921-367.085c-50.439-36.027-117.236-38.029-169.493-6.004l-9.065 6.005-513.921 367.085 59.519 83.326 513.921-367.084c16.022-11.444 36.997-12.589 54.010-3.434l5.512 3.433 513.92 367.085z" />
<glyph unicode="&#xe933;" glyph-name="message" horiz-adv-x="1210" d="M986.666 950.69h-763.348c-102.825 0-186.182-83.357-186.182-186.182v-465.455c0-102.826 83.356-186.181 186.182-186.181h185.323c14.891 0 28.884-7.126 37.646-19.172l83.417-114.7c37.18-51.116 113.393-51.116 150.572-0.003l83.421 114.705c8.761 12.045 22.753 19.171 37.644 19.171h185.325c102.824 0 186.182 83.356 186.182 186.181v465.455c0 102.824-83.358 186.182-186.182 186.182zM223.318 857.6h763.348c51.411 0 93.091-41.679 93.091-93.091v-465.455c0-51.413-41.679-93.090-93.091-93.090h-185.325c-44.675 0-86.65-21.376-112.929-57.506l-83.423-114.701-83.417 114.699c-26.28 36.132-68.256 57.508-112.93 57.508h-185.323c-51.413 0-93.091 41.677-93.091 93.090v465.455c0 51.412 41.678 93.091 93.091 93.091zM791.226 652.8v-93.091h-372.363v93.091zM791.226 503.855v-93.091h-372.363v93.091z" />
<glyph unicode="&#xe934;" glyph-name="notice" horiz-adv-x="1063" d="M787.24 916.578l-264.113-164.409c-10.594-6.595-22.825-10.090-35.302-10.090h-237.486c-125.174 0-226.647-101.473-226.647-226.647l0.203-9.457c5.471-121.67 105.129-217.19 226.445-217.19h236.395c12.885 0 25.496-3.744 36.303-10.779l262.849-171.147c52.399-34.116 121.748 3.483 121.748 66.009v676.84c0 61.804-67.925 99.533-120.394 66.871zM564.754 685.297l264.114 164.41v-676.838l-262.854 171.149c-23.595 15.359-51.134 23.536-79.279 23.536h-236.395c-79.146 0-144.178 62.332-147.725 141.078l-0.163 7.685c0.010 80.786 66.217 146.993 147.888 146.993h237.486c27.192 0 53.842 7.617 76.928 21.988zM868.309 692.481c99.254 0 179.413-81.675 179.413-182.060 0-97.52-75.643-177.381-170.953-181.865l-8.459-0.199v78.769c55.418 0 100.643 46.082 100.643 103.294 0 55.009-41.814 99.73-94.296 103.088l-6.347 0.203v78.769zM452.584 688.767v-636.559c0-64.18-52.027-116.208-116.207-116.208-53.135 0-99.161 35.97-112.427 86.803l-1.603 7.022-57.84 294.664 77.294 15.172 57.84-294.664c3.447-17.562 18.84-30.228 36.736-30.228 19.2 0 35.023 14.453 37.186 33.073l0.252 4.366v636.559h78.769z" />
<glyph unicode="&#xe935;" glyph-name="tw" horiz-adv-x="1152" d="M1028.205 684.989c0-10.662 0-21.323 0-30.461 0-315.273-230.118-679.283-649.575-679.283-129.624 0-249.053 39.597-351.005 106.611 17.477-1.523 36.411-3.046 53.889-3.046 106.321 0 205.359 38.080 284.008 102.048-100.495 1.523-184.969 71.584-212.641 166.012 14.564-3.046 27.672-4.569 43.693-4.569 20.39 0 40.78 3.046 59.714 9.138-104.864 21.323-183.512 117.276-183.512 233.028 0 1.523 0 1.523 0 3.046 30.586-18.276 65.54-28.938 103.408-30.461-61.171 42.646-101.951 115.752-101.951 199.521 0 44.169 11.651 85.292 30.585 120.322 112.147-144.691 281.095-239.12 470.433-249.782-4.369 16.754-5.825 36.554-5.825 54.83 0 132.506 101.948 239.12 228.662 239.12 65.542 0 125.254-28.938 166.035-74.63 52.435 10.662 100.493 30.461 145.645 57.876-17.478-56.353-53.888-102.045-100.493-132.506 46.605 6.092 90.298 18.276 131.078 38.076-29.126-48.737-66.995-91.383-112.147-124.89z" />
<glyph unicode="&#xe936;" glyph-name="world" d="M503.112 950.17c-270.554 0-489.881-219.327-489.881-489.882s219.327-489.882 489.881-489.882c270.555 0 489.882 219.327 489.882 489.882s-219.327 489.882-489.882 489.882zM503.112 887.91c236.17 0 427.622-191.453 427.622-427.622s-191.453-427.622-427.622-427.622c-236.169 0-427.622 191.453-427.622 427.622s191.453 427.622 427.622 427.622zM503.177 950.17c-149.74 0-260.507-221.533-260.507-489.882s110.767-489.882 260.507-489.882c149.739 0 260.506 221.533 260.506 489.882s-110.767 489.882-260.506 489.882zM503.177 887.91c103.623 0 198.246-189.247 198.246-427.622s-94.623-427.622-198.246-427.622c-103.624 0-198.248 189.247-198.248 427.622s94.624 427.622 198.248 427.622zM503.194 294.81c105.402 0 200.621-12.626 284.104-33.716 29.397-7.427 55.281-15.411 77.463-23.437l12.216-4.565c5.42-2.098 9.803-3.904 13.126-5.354l2.968-1.329-26.090-56.529-5.048 2.186c-4.292 1.78-10.43 4.178-18.355 7.046-20.272 7.334-44.18 14.71-71.53 21.619-78.651 19.87-168.775 31.82-268.855 31.82s-190.206-11.95-268.857-31.82c-27.35-6.909-51.258-14.285-71.53-21.619l-10.539-3.931c-3.061-1.181-5.669-2.225-7.815-3.115l-5.048-2.186-26.090 56.529 11.020 4.685c4.726 1.896 10.497 4.105 17.29 6.563 22.182 8.026 48.066 16.010 77.463 23.437 83.483 21.090 178.703 33.716 284.106 33.716zM866.981 750.696l26.090-56.529-11.020-4.685c-4.726-1.896-10.497-4.105-17.29-6.563-22.182-8.026-48.066-16.010-77.463-23.437-83.483-21.090-178.703-33.716-284.104-33.716-105.403 0-200.623 12.626-284.106 33.716-29.397 7.427-55.281 15.411-77.463 23.437l-12.216 4.565c-5.42 2.098-9.803 3.904-13.126 5.354l-2.968 1.329 26.090 56.529 5.048-2.186c4.292-1.78 10.43-4.178 18.354-7.046 20.272-7.334 44.18-14.71 71.53-21.619 78.651-19.87 168.776-31.82 268.857-31.82s190.204 11.95 268.855 31.82c27.35 6.909 51.258 14.285 71.53 21.619l10.539 3.931c3.062 1.181 5.669 2.225 7.815 3.115l5.048 2.186z" />
<glyph unicode="&#xe937;" glyph-name="ads" d="M566.997 14.769c-7.877 0-15.754 3.938-23.631 11.815-11.815 11.815-7.877 31.508 3.938 43.323l90.585 70.892c3.938 3.938 11.815 7.877 19.692 7.877l114.215-3.938c3.938 0 7.877 3.938 7.877 3.938l31.508 110.277c0 7.877 7.877 11.815 11.815 15.754l98.462 63.015c3.938 0 3.938 3.938 3.938 7.877l-39.385 106.338c-3.938 7.877-3.938 15.754 0 19.692l39.385 106.339c0 3.938 0 7.877-3.938 7.877l-94.523 66.954c-7.877 3.938-11.815 11.815-11.815 15.754l-31.508 110.277c0 3.938-3.938 3.938-7.877 3.938l-114.215-3.938c-7.877 0-15.754 0-19.692 7.877l-90.585 74.831c-3.938 3.938-7.877 3.938-7.877 0l-90.585-70.892c-3.938-3.938-11.815-7.877-19.692-7.877l-118.154 3.938c-3.938 0-7.877-3.938-7.877-3.938l-27.569-114.215c0-7.877-7.877-11.815-11.815-15.754l-98.462-63.015c-3.938 0-3.938-3.938-3.938-7.877l39.384-106.339c3.938-7.877 3.938-15.754 0-19.692l-15.753-47.262c-3.938-15.754-23.631-23.631-39.385-15.754-15.754 3.938-23.631 23.631-15.754 39.385l11.815 35.446-35.446 94.523c-11.815 27.57 0 63.016 27.569 78.77l86.646 55.138 27.57 102.4c7.877 31.508 35.446 51.2 66.954 47.262l102.4-3.938 82.708 66.954c23.631 19.692 59.077 19.692 82.708 0l82.708-66.954 102.4 3.938c31.508 0 59.077-19.692 66.954-47.262l27.569-102.4 86.646-55.138c27.569-15.754 35.446-51.2 27.569-78.77l-35.446-98.462 35.446-98.462c11.815-27.569 0-63.015-27.569-78.769l-86.646-55.138-27.569-102.4c-7.877-31.508-35.446-51.2-66.954-47.262l-102.4 3.938-82.708-66.954c-3.938-3.938-11.815-3.938-19.692-3.938zM133.76 10.831c-7.877 0-19.692 3.938-23.631 11.815l-66.954 102.4c-7.877 11.815-3.939 31.508 7.877 39.385s31.508 3.938 39.385-7.877l66.954-102.4c7.877-11.815 3.938-31.508-7.877-39.385-3.938-3.938-11.815-3.938-15.754-3.938zM677.226 180.185c-7.877 0-19.692 3.938-23.631 11.815l-248.123 393.847c-7.877 11.815-3.938 31.508 7.877 39.385s31.508 3.938 39.385-7.877l248.123-389.908c7.877-11.815 3.938-31.508-7.877-39.385-3.938-7.877-11.815-7.877-15.754-7.877zM121.906 30.523c-11.815 0-19.692 3.938-23.631 11.815l-39.385 63.015c-7.877 11.815-7.877 23.631 0 35.446l362.339 456.862c3.938 7.877 11.815 11.815 23.631 11.815 7.877 0 19.692-3.938 23.631-11.815l220.554-350.524c3.938-7.877 7.877-15.754 3.938-27.569-3.938-7.877-11.815-15.754-19.692-19.692l-543.508-169.354c-3.938 0-7.877 0-7.877 0zM117.968 121.108l15.754-27.569 484.432 153.6-177.231 279.631-322.955-405.662zM342.54-24.615c-35.446 0-74.831 19.692-94.523 51.2l-35.446 51.2c-7.877 11.815-3.938 31.508 7.877 39.385s31.508 3.938 39.385-7.877l35.446-51.2c7.877-11.815 19.692-19.692 31.508-23.631s27.569 0 39.385 7.877c0 0 0 0 3.938 0 23.631 19.692 31.507 51.2 15.754 78.769l-7.877 11.815c-7.877 11.815-3.938 31.508 7.877 39.385s31.507 3.938 39.384-7.877l7.877-7.877c35.446-51.2 19.692-122.092-31.508-161.477-3.938 0-3.938-3.938-3.938-3.938-15.753-11.815-35.446-15.754-55.138-15.754z" />
</font>
</defs>
</svg>
